#TITLE:Need The Speed;
#SUBTITLE:;
#ARTIST:m1dy;
#TITLETRANSLIT:;
#SUBTITLETRANSLIT:;
#ARTISTTRANSLIT:;
#CREDIT:Dorumon162;
#BANNER:Need The Speed-bn.png;
#BACKGROUND:Need The Speed-bg.png;
#LYRICSPATH:;
#CDTITLE:doru162.gif;
#MUSIC:Need The Speed.mp3;
#OFFSET:-5.957;
#SAMPLESTART:45.869;
#SAMPLELENGTH:8.600;
#SELECTABLE:YES;
#DISPLAYBPM:111.000:1776.000;
#BPMS:0.000=111.020,0.000=222.040,4.000=888.160,20.000=444.080,84.000=1332.240,90.000=888.160,94.000=1332.240,100.000=888.160,104.000=444.080,152.000=888.160,153.000=291.428,154.000=888.160,155.000=291.428,156.000=888.160,157.000=291.428,158.000=888.160,159.000=291.428,160.000=666.120,160.500=333.060,161.000=666.120,161.500=333.060,162.000=666.960,162.500=333.060,163.000=666.120,163.500=333.060,164.000=444.080,216.667=666.120,217.167=333.060,217.667=666.120,218.167=333.060,218.667=666.120,219.167=333.060,219.667=666.120,220.167=333.060,220.667=666.120,221.167=333.060,221.667=666.120,222.167=333.060,222.667=666.120,223.167=333.060,223.667=444.080,232.000=888.160,248.000=777.140,248.500=666.120,249.000=555.100,249.500=444.080,250.000=333.060,250.500=222.040,251.000=111.020,251.250=87.500,252.000=444.080,300.000=111.020,301.000=222.040,303.000=444.080,307.000=888.160,313.000=1332.240,316.000=444.080,364.000=111.020,365.000=222.040,367.000=444.080,371.000=888.160,379.000=92.500,384.000=444.080,392.000=666.120,393.000=888.160,409.000=297.500,410.000=888.160,411.000=297.500,412.000=888.160,413.000=297.500,414.000=888.160,415.000=297.500,416.000=888.160,417.000=297.500,418.000=888.160,419.000=297.500,420.000=888.160,421.000=297.500,422.000=888.160,423.000=297.500,424.000=444.080,440.000=888.160,441.000=297.500,442.000=888.160,443.000=297.500,444.000=888.160,445.000=297.500,446.000=888.160,447.000=297.500,448.000=888.160,449.000=297.500,450.000=888.160,451.000=297.500,452.000=888.160,453.000=297.500,454.000=888.160,455.000=297.500,456.000=444.080,472.000=1776.320,474.000=595.000,476.000=1776.320,478.000=595.000,480.000=1776.320,482.000=595.000,484.000=1776.320,486.000=595.000,488.000=1776.320,490.000=595.000,492.000=1776.320,494.000=595.000,496.000=1776.320,498.000=595.000,500.000=1776.320,502.000=595.000,504.000=888.160,536.000=1776.320,538.000=595.000,540.000=1776.320,542.000=595.000,544.000=1776.320,546.000=595.000,548.000=1776.320,550.000=595.000,552.000=1776.320,554.000=595.000,556.000=1776.320,558.000=595.000,560.000=1776.320,562.000=595.000,564.000=1776.320,566.000=595.000,568.000=1554.280,568.333=1332.240,568.667=1110.200,569.000=888.160,569.333=666.120,569.667=444.080,570.000=222.040,570.250=111.020,570.500=55.510,571.000=46.000,572.000=444.080,668.000=888.160,668.500=297.500,669.000=888.160,669.500=297.500,670.000=888.160,670.500=297.500,671.000=888.160,671.500=297.500,672.000=888.160,672.500=297.500,673.000=888.160,673.500=297.500,674.000=888.160,674.500=297.500,675.000=888.160,675.500=297.500,676.000=888.160,676.500=297.500,677.000=888.160,677.500=297.500,678.000=888.160,678.500=297.500,679.000=888.160,679.500=297.500,680.000=888.160,680.500=297.500,681.000=888.160,681.500=297.500,682.000=888.160,682.500=297.500,683.000=888.160,683.500=297.500,684.000=222.040,686.000=444.080,690.000=111.020,692.000=444.080,756.000=888.160,760.000=1776.320,768.000=444.080,820.000=222.040,828.000=444.080,884.000=111.020,885.000=222.040,887.000=444.080,888.000=777.140,900.000=444.080,948.000=111.020,949.000=222.040,951.000=444.080,958.000=888.160,960.000=222.040,968.000=444.080,1030.000=1332.540,1036.000=444.080,1068.000=888.160,1068.500=297.500,1069.000=888.160,1069.500=297.500,1070.000=888.160,1070.500=297.500,1071.000=888.160,1071.500=297.500,1072.000=888.160,1072.500=297.500,1073.000=888.160,1073.500=297.500,1074.000=888.160,1074.500=297.500,1075.000=888.160,1075.500=297.500,1076.000=888.160,1076.500=297.500,1077.000=888.160,1077.500=297.500,1078.000=888.160,1078.500=297.500,1079.000=888.160,1079.500=297.500,1080.000=888.160,1080.500=297.500,1081.000=888.160,1081.500=297.500,1082.000=888.160,1082.500=297.500,1083.000=888.160,1083.500=297.500,1084.000=111.020,1085.000=222.040,1087.000=888.160,1099.000=222.040,1100.000=1776.320;
#STOPS:;
#BGCHANGES:;
// cache tags:
#FIRSTBEAT:0.000;
#LASTBEAT:1124.000;
#SONGFILENAME:Songs/Music V.I.P ^_^/Need The Speed/Need The Speed.sm;
#HASMUSIC:1;
#HASBANNER:1;
#MUSICLENGTH:155.036;
// end cache tags

//---------------dance-single - Dorumon162----------------
#NOTES:
     dance-single:
     Dorumon162:
     Hard:
     12:
     1.000,1.000,0.123,0.729,0.210,1136.000,19.000,113.000,0.000,0.000:

0001
1000
0001
1000
0001
1000
0001
1000
0001
1000
0001
1000
0001
1000
0001
1000
,
0002
0000
0000
0000
,
0000
0000
0000
0000
,
0000
0000
0000
0000
,
0000
0000
0000
0000
,
0103
0010
0100
0010
0100
0010
0100
0010
,
0100
0010
0100
0010
0100
0010
0100
0010
,
1000
1000
0010
0100
,
0001
1000
0100
0010
,
0001
0001
0100
0010
,
1000
0001
0010
0100
,
1000
1000
0100
0010
,
0001
1000
0010
0100
,
0001
0001
0010
0100
,
1000
0000
0001
0000
0100
0000
0010
0100
,
0001
0001
0100
0010
,
1000
0001
0010
0100
,
1000
1000
0010
0100
,
0001
1000
0100
0010
,
0001
1000
0001
1000
0001
1000
0001
1000
,
0001
1000
0001
1000
0001
1000
0001
1000
,
0022
0000
0000
0000
,
0000
0033
0202
0000
,
0000
0303
2020
0000
,
0000
0000
0000
3030
,
2200
0000
0000
3300
,
0010
0010
0001
1000
,
0100
0010
1000
0001
,
0100
0100
1000
0001
,
0010
0100
0001
1000
,
0010
0010
1000
0001
,
0100
0010
0001
1000
,
0100
0100
0001
1000
,
0010
0000
0100
0000
1000
0000
0001
1000
,
0100
0100
1000
0001
,
0010
0100
0001
1000
,
0010
0010
0001
1000
,
0100
0010
1000
0001
,
2000
0000
3200
0000
,
0320
0000
0032
0000
,
2003
3020
0230
0302
,
1003
0001
0100
0001
0010
0001
0100
0001
,
1000
1000
1000
1000
,
1000
0000
1000
0100
0001
0000
0001
0000
,
0001
0001
0001
0001
,
0001
0000
0001
0000
0001
0000
0001
0010
,
0100
0100
0100
0100
,
0100
0000
0100
0000
0100
0000
0100
0010
,
1000
0100
0010
0001
0010
0000
0010
0000
,
0010
0000
0010
0000
0010
0100
0001
1000
,
0001
0001
0001
0001
,
0001
0000
0001
0000
0001
0000
0001
0010
,
1000
1000
1000
1000
,
1000
0000
0010
0000
0100
0000
0001
1000
,
0002
0000
0203
0000
0000
0320
0000
0000
2030
0000
0000
3020
,
0000
0000
0230
0000
0000
0302
0000
0000
0203
0000
0000
0310
,
0001
0000
1000
0001
1000
0000
0110
0000
,
0001
0100
0010
0000
1000
0000
0000
0000
0110
0000
0000
0000
0000
0000
0000
0000
,
0001
1000
0001
1000
,
0001
1000
0001
1000
,
0001
1000
0001
1000
,
0001
1000
0001
2000
,
0002
0000
0000
0000
0000
0000
0000
0000
0000
0000
0000
0000
0000
3003
0000
0000
,
1000
1000
0010
0100
,
0001
0100
0010
1000
,
0001
0001
0100
0010
,
1000
0010
0100
0001
,
1000
0100
1000
0010
,
0001
0100
0001
0010
,
0001
1000
0001
1000
0001
1000
0001
1000
,
0001
1000
0001
1000
0001
1000
0001
1000
,
0001
0001
0100
0010
,
1000
0010
0100
0001
,
1000
1000
0010
0100
,
0001
0100
0010
1000
,
0001
1000
0001
1000
0001
1000
0001
1000
0001
1000
0001
1000
0001
0000
1000
0000
,
0001
1000
0001
1000
0001
1000
0001
0000
,
1000
0001
1000
0001
,
1000
0001
1000
0001
,
1000
0100
0100
0010
,
0010
0001
0001
1010
,
0000
0100
0100
1000
,
1000
0001
0001
0011
,
0000
1000
1000
0010
,
0010
0100
0100
0101
,
0000
0010
0010
0001
,
0001
0000
0010
0000
0010
0000
0001
0010
,
0100
1000
1000
0001
,
0001
0100
0100
0011
,
0000
1000
1000
0010
,
0010
0100
0100
0110
,
1000
0001
1000
0001
1000
0001
1000
0001
1000
0001
1000
0001
1000
0000
0001
0000
,
1000
0001
1000
0001
1000
0001
1000
0000
,
0001
1000
0001
1000
,
0001
1000
0001
2000
,
0000
0000
0000
0000
,
3001
1000
0001
1000
0001
1000
0001
1000
,
0001
1000
0001
1000
0001
1000
0001
1000
,
0001
1000
0001
1000
,
0001
1000
0001
1000
,
0001
1000
0001
1000
,
0001
1000
0001
1000
,
0002
0000
0023
0000
,
0230
0000
2300
0000
,
3020
0000
0032
0000
,
2003
0000
3200
0000
,
0302
0000
2003
0000
,
3002
0000
2003
0000
,
3020
0000
0230
0000
,
0320
0000
0230
0000
,
2300
0000
3200
0000
,
0320
0000
0032
0000
,
0203
0000
2300
0000
,
3002
0000
0023
0000
,
2030
0000
3002
0000
,
2003
0000
3002
0000
,
0203
0000
0320
0000
,
0230
0000
0320
0000
,
0230
0000
0000
0000
,
0302
0000
0000
0000
,
2003
0000
0000
0000
,
3020
0000
0000
0000
,
0032
0000
0000
0000
,
0203
0000
0000
0000
,
0320
0000
0000
0000
,
2030
0000
0000
0000
,
3200
0000
0000
0000
,
0320
0000
0000
0000
,
0230
0000
0000
0000
,
0320
0000
0000
0000
,
0032
0000
0000
0000
,
2003
0000
0000
0000
,
3002
0000
0000
0000
,
2003
0000
0000
0000
,
3020
0000
0000
0000
,
2030
0000
0000
0000
,
3002
0000
0000
0000
,
0203
0000
0000
0000
,
2300
0000
0000
0000
,
3020
0000
0000
0000
,
0230
0000
0000
0000
,
0302
0000
0000
0000
,
2000
0000
0000
3003
,
0001
0001
0001
0001
,
0001
0000
0001
0010
1000
0000
1000
0000
,
1000
1000
1000
1000
,
1000
0000
1000
0100
0001
0000
0001
0000
,
0001
0001
0001
0001
,
0001
0000
0001
0010
1000
0000
1000
0000
,
0100
0010
0100
0010
0100
0010
0100
0010
,
0100
0010
0100
0010
1000
0001
1000
0001
,
0010
0010
0010
0010
,
0010
0000
0010
1000
0100
0000
0100
0000
,
0100
0100
0100
0100
,
0100
0000
0100
0001
0010
0000
0010
0000
,
0010
0010
0010
0010
,
0010
0000
0010
1000
0100
0000
0100
0000
,
0001
1000
0001
1000
0001
1000
0001
1000
,
0001
1000
0001
1000
0001
1000
0001
1000
,
0001
0001
0010
0010
,
0100
0100
1000
1000
,
0001
0001
1000
1000
,
0010
0010
0100
0100
,
1000
1000
0100
0100
,
0010
0010
0001
0001
,
1000
1000
0001
0001
,
0100
0000
0100
0000
0010
0000
0010
0100
,
1000
1000
0001
0001
,
0100
0100
0010
0010
,
0001
0001
1000
1000
,
0010
0010
0100
0100
,
1000
0001
1000
0001
1000
0001
1000
0001
,
1000
0000
0001
0000
1000
0000
0001
0000
2000
0000
0000
0000
0000
3002
0000
0000
,
0103
0010
0100
0010
0100
0010
0100
0010
,
0100
0000
0010
0000
0100
0000
0010
0000
0100
0000
0010
0000
0100
0001
0010
0000
,
1000
1000
0010
0100
,
0001
1000
0100
0010
,
0001
0001
0100
0010
,
1000
0001
0010
0100
,
1000
1000
0100
0010
,
0001
1000
0010
0100
,
0001
0001
0010
0100
,
1000
0000
0001
0000
0100
0000
0010
0100
,
0001
0001
0100
0010
,
1000
0001
0010
0100
,
1000
1000
0010
0100
,
0001
1000
0100
0010
,
0001
1000
0001
1000
0001
1000
0001
1000
,
0001
1000
0001
1000
0001
1000
0001
1000
,
0002
0000
0000
0000
,
2000
0000
0000
0000
,
0000
0000
0000
3003
,
0100
0010
0100
0010
0100
0010
0100
0010
,
1000
1000
0010
0100
,
0001
1000
0100
0010
,
0001
0001
0100
0010
,
1000
0001
0010
0100
,
1000
1000
0100
0010
,
0001
1000
0010
0100
,
0001
0001
0010
0100
,
1000
0000
0001
0000
0100
0000
0010
0100
,
0001
0001
0100
0010
,
1000
0001
0010
0100
,
1000
1000
0010
0100
,
0001
1000
0100
0010
,
0002
0000
0000
0000
,
2003
3002
2003
3002
2003
3002
2003
3002
2003
3002
2003
3002
2003
3002
2003
3002
,
1003
0001
1000
0001
1000
0001
1000
0001
,
1000
0001
1000
0001
1000
0001
1000
0001
,
1000
0010
0010
0100
,
0100
1000
1000
0101
,
0000
0010
0010
0001
,
0001
0010
0010
1100
,
0000
0001
0001
0100
,
0100
0010
0010
1010
,
0000
0100
0100
1000
,
1000
0000
0001
0000
0001
0000
1000
0100
,
0010
0001
0001
1000
,
1000
0010
0010
1100
,
0000
0001
0001
0100
,
0100
0010
0010
0110
,
0001
1000
0001
1000
0001
1000
0001
1000
0001
1000
0001
1000
0002
0000
0000
0000
,
2000
0000
0000
0000
,
0000
0000
0000
0000
,
0000
0000
0000
3003
,
0100
0100
1000
1000
,
0001
0001
0100
0011
,
0000
1000
1000
0010
,
0010
0100
0100
0101
,
0000
0010
0010
0001
,
0001
1000
1000
1100
,
0000
0001
0001
0100
,
0100
0000
0010
0000
0010
0000
0100
0001
,
1000
0100
1000
0100
,
1000
0010
1000
0010
,
0001
0100
0001
0100
,
0001
0010
0001
0010
,
1000
0001
1000
0001
1000
0001
1000
0001
1000
0001
1000
0001
1000
0000
0001
0000
,
1000
0001
1000
0001
1000
0001
1000
0001
,
1000
0001
1000
0001
1000
0000
0001
0000
,
2000
0000
0000
0000
,
3001
1000
0001
1000
0001
1000
0001
1000
0001
1000
0001
1000
0001
1000
0001
1000
,
0001
0001
0001
0001
,
0001
0000
0001
0010
1000
0000
1000
0000
,
1000
1000
1000
1000
,
1000
0000
1000
0100
0001
0000
0001
0000
,
0001
0001
0001
0001
,
0001
0000
0001
0010
1000
0000
1000
0000
,
0100
0010
0100
0010
0100
0010
0100
0010
,
0100
0010
0100
0010
1000
0001
1000
0001
,
0010
0010
0010
0010
,
0010
0000
0010
1000
0100
0000
0100
0000
,
0100
0100
0100
0100
,
0100
0000
0100
0001
0010
0000
0010
0000
,
0010
0010
0010
0010
,
0010
0000
0010
1000
0100
0000
0100
0000
,
1000
0001
1000
0001
1000
0001
1000
0001
,
0200
0000
0020
0000
,
0000
0000
0000
0330
,
1000
1000
0100
0100
,
0010
0010
0001
0001
,
1000
1000
0001
0001
,
0100
0100
0010
0010
,
0001
0001
0010
0010
,
0100
0100
1000
1000
,
0001
0001
1000
1000
,
0010
0000
0010
0000
0100
0000
0100
0010
,
0001
0001
1000
1000
,
0010
0010
0100
0100
,
1000
1000
0001
0001
,
0100
0100
0010
0010
,
0001
1000
0001
1000
0001
1000
0001
1000
0001
1000
0001
1000
0001
0000
0000
0000
,
1000
0001
1000
0001
,
1000
0001
1000
0001
,
1000
0001
1000
0002
,
2000
0000
0000
0000
,
0000
0000
0000
0000
,
0000
0000
0000
0000
,
0000
0000
0000
0000
,
0000
0000
0000
0000
,
0000
0000
0000
0000
,
3003
0000
0000
0000
;
